<?xml version="1.0" standalone="no"?>
<!DOCTYPE svg PUBLIC "-//W3C//DTD SVG 1.1//EN" "http://www.w3.org/Graphics/SVG/1.1/DTD/svg11.dtd" >
<svg xmlns="http://www.w3.org/2000/svg">
<metadata>Generated by IcoMoon</metadata>
<defs>
<font id="one_viewer" horiz-adv-x="1024">
<font-face units-per-em="1024" ascent="960" descent="-64" />
<missing-glyph horiz-adv-x="1024" />
<glyph unicode="&#x20;" horiz-adv-x="512" d="" />
<glyph unicode="&#xe900;" glyph-name="search" d="M693.169 518.892c0 141.785-118.154 259.938-259.938 259.938s-259.938-118.154-259.938-259.938c0-141.785 118.154-252.062 259.938-252.062 149.662 0 259.938 110.277 259.938 252.062zM984.615 46.277c0-39.385-31.508-70.892-70.892-70.892-15.754 0-39.385 7.877-55.138 23.631l-189.046 189.046c-63.015-47.262-149.662-70.892-228.431-70.892-220.554 0-401.723 181.169-401.723 401.723s181.169 401.723 401.723 401.723c220.554 0 401.723-181.169 401.723-401.723 0-78.769-23.631-157.538-70.892-228.431l196.923-196.923c7.877-7.877 15.754-31.508 15.754-47.262z" />
<glyph unicode="&#xe901;" glyph-name="last" d="M199.411 852.211l-91.621-97.011 296.421-307.2-296.421-307.2 91.621-97.011 393.432 404.211-393.432 404.211zM916.211 852.211h-129.347v-808.421h129.347v808.421z" />
<glyph unicode="&#xe902;" glyph-name="next" d="M414.989 852.211l-91.621-97.011 291.032-307.2-291.032-307.2 91.621-97.011 382.653 404.211-382.653 404.211z" />
<glyph unicode="&#xe903;" glyph-name="prev" d="M657.516 43.789l91.621 97.011-291.032 307.2 291.032 307.2-91.621 97.011-382.653-404.211 382.653-404.211z" />
<glyph unicode="&#xe904;" glyph-name="first" d="M237.137 852.211h-129.347v-808.421h129.347v808.421zM824.589 852.211l-393.432-404.211 393.432-404.211 91.621 97.011-296.421 307.2 296.421 307.2-91.621 97.011z" />
<glyph unicode="&#xe905;" glyph-name="share" d="M797.642 933.053c-113.179 0-204.8-91.621-204.8-204.8 0-5.389 0-16.168 0-21.558l-226.358-113.179c-37.726 32.337-86.232 53.895-140.126 53.895-113.179 0-204.8-91.621-204.8-204.8s91.621-204.8 204.8-204.8c53.895 0 102.4 21.558 140.126 53.895l226.358-113.179c0-5.389 0-16.168 0-21.558 0-113.179 91.621-204.8 204.8-204.8s204.8 91.621 204.8 204.8-97.011 210.189-204.8 210.189c-53.895 0-102.4-21.558-140.126-53.895l-226.358 113.179c0 5.389 0 16.168 0 21.558s0 16.168 0 21.558l226.358 113.179c37.726-32.337 86.232-53.895 140.126-53.895 113.179 0 204.8 91.621 204.8 204.8s-97.011 199.411-204.8 199.411z" />
<glyph unicode="&#xe906;" glyph-name="viewer_right_app" d="M650.017 577.113v-84.591h-276.035v84.591h276.035zM810.296 234.296l-89.043-89.043-106.852 106.852 89.043 89.043c106.852 106.852 106.852 280.487 0 387.339s-280.487 106.852-387.339 0c-106.852-106.852-106.852-280.487 0-387.339l191.443-195.896 106.852-106.852-102.4-102.4-106.852 106.852-191.443 195.896c-164.73 164.73-164.73 436.313 0 601.043s431.861 164.73 596.591 0c164.73-169.183 164.73-436.313 0-605.496z" />
<glyph unicode="&#xe907;" glyph-name="minifier" d="M528.168 609.684h-296.421v-59.284h291.032v59.284zM382.653 318.653c-145.516 0-264.084 118.568-264.084 264.084s118.568 264.084 264.084 264.084c145.516 0 264.084-118.568 264.084-264.084-5.389-150.905-118.568-264.084-264.084-264.084zM382.653 960c-210.189 0-382.653-172.463-382.653-382.653s172.463-382.653 382.653-382.653c91.621 0 183.242 32.337 247.916 91.621l16.168-16.168v-48.505l291.032-291.032 86.232 86.232-291.032 291.032h-48.505l-16.168 16.168c59.284 64.674 91.621 150.905 91.621 247.916 0 215.579-167.074 388.042-377.263 388.042z" />
<glyph unicode="&#xe908;" glyph-name="magnifier" d="M732.968 318.653l291.032-291.032-86.232-91.621-291.032 291.032v48.505l-16.168 16.168c-64.674-59.284-150.905-91.621-247.916-91.621-210.189 0-382.653 167.074-382.653 377.263s172.463 382.653 382.653 382.653c102.4 0 199.411-37.726 269.474-113.179s113.179-167.074 113.179-269.474c0-91.621-32.337-183.242-91.621-247.916l16.168-16.168h43.116zM382.653 318.653c145.516 0 264.084 118.568 264.084 264.084s-118.568 264.084-264.084 264.084c-145.516 0-264.084-118.568-264.084-264.084 0-150.905 113.179-264.084 264.084-264.084zM528.168 550.4h-118.568v-118.568h-59.284v118.568h-118.568v59.284h118.568v118.568h59.284v-118.568h118.568v-59.284z" />
<glyph unicode="&#xe909;" glyph-name="viewer_right_maximize" d="M365.078 381.217l80.139-80.139-253.774-253.774h200.348v-111.304h-391.791v391.791h111.304v-200.348l253.774 253.774zM445.217 594.922l-80.139-80.139-253.774 253.774v-200.348h-111.304v391.791h391.791v-111.304h-200.348l253.774-253.774zM658.922 381.217l253.774-253.774v200.348h111.304v-391.791h-391.791v111.304h200.348l-253.774 253.774 80.139 80.139zM578.783 594.922l253.774 253.774h-200.348v111.304h391.791v-391.791h-111.304v200.348l-253.774-253.774-80.139 80.139z" />
<glyph unicode="&#xe90a;" glyph-name="viewer_right_share" d="M810.296 363.409c120.209 0 213.704-93.496 213.704-213.704s-93.496-213.704-213.704-213.704-213.704 93.496-213.704 213.704c0 8.904 0 13.357 0 22.261l-235.965 120.209c-40.070-35.617-89.043-57.878-146.922-57.878-120.209 0-213.704 93.496-213.704 213.704s93.496 213.704 213.704 213.704c53.426 0 106.852-22.261 146.922-57.878l240.417 120.209c0 8.904 0 13.357 0 22.261 0 120.209 93.496 213.704 213.704 213.704s209.252-93.496 209.252-213.704-93.496-213.704-213.704-213.704c-57.878 0-106.852 22.261-146.922 57.878l-235.965-120.209c0-8.904 0-13.357 0-22.261s0-13.357 0-22.261l240.417-120.209c35.617 35.617 89.043 57.878 142.47 57.878z" />
<glyph unicode="&#xe90b;" glyph-name="viewer_right_minimize" d="M943.861 960l80.139-80.139-253.774-253.774h200.348v-111.304h-391.791v391.791h111.304v-200.348l253.774 253.774zM1024 16.139l-80.139-80.139-253.774 253.774v-200.348h-111.304v391.791h391.791v-111.304h-200.348l253.774-253.774zM80.139 960l253.774-253.774v200.348h111.304v-391.791h-391.791v111.304h200.348l-253.774 253.774 80.139 80.139zM0 16.139l253.774 253.774h-200.348v111.304h391.791v-391.791h-111.304v200.348l-253.774-253.774-80.139 80.139z" />
<glyph unicode="&#xe90c;" glyph-name="printer" d="M706.021 221.642h-388.042v-97.011h382.653v97.011zM226.358 33.011v285.642h576.674v-285.642h-576.674zM829.979 448c-37.726 0-64.674 26.947-64.674 64.674s26.947 64.674 64.674 64.674c37.726 0 64.674-26.947 64.674-64.674s-26.947-64.674-64.674-64.674zM226.358 701.305v161.684h576.674v-161.684h-576.674zM894.653 960h-765.305v-258.695h-21.558c-59.284 0-107.789-48.505-107.789-107.789v-361.095c0-59.284 48.505-107.789 107.789-107.789h21.558v-188.632h770.695v194.021h16.168c59.284 0 107.789 48.505 107.789 107.789v355.705c0 59.284-48.505 107.789-107.789 107.789h-21.558v258.695z" />
<glyph unicode="&#xe90d;" glyph-name="enlargebar_sd_back" d="M699.733 170.667l-59.733-59.733-362.667 358.4 362.667 362.667 59.733-59.733-298.667-298.667 298.667-302.933z" />
<glyph unicode="&#xe90e;" glyph-name="menu" d="M152.596 666.855c32.125 0 60.235 28.11 60.235 60.235s-28.11 60.235-60.235 60.235-60.235-28.11-60.235-60.235 28.11-60.235 60.235-60.235zM152.596 385.757c32.125 0 60.235 28.11 60.235 60.235s-28.11 60.235-60.235 60.235-60.235-28.11-60.235-60.235c0-32.125 28.11-60.235 60.235-60.235zM152.596 104.659c-32.125 0-60.235 28.11-60.235 60.235s28.11 60.235 60.235 60.235 60.235-28.11 60.235-60.235c0-32.125-28.11-60.235-60.235-60.235zM353.38 787.325h522.039c32.125 0 60.235-28.11 60.235-60.235s-28.11-60.235-60.235-60.235h-522.039c-32.125 0-60.235 28.11-60.235 60.235s28.11 60.235 60.235 60.235zM353.38 506.227h522.039c32.125 0 60.235-28.11 60.235-60.235s-28.11-60.235-60.235-60.235h-522.039c-32.125 0-60.235 28.11-60.235 60.235s28.11 60.235 60.235 60.235zM353.38 225.129h522.039c32.125 0 60.235-28.11 60.235-60.235s-28.11-60.235-60.235-60.235h-522.039c-32.125 0-60.235 28.11-60.235 60.235s28.11 60.235 60.235 60.235z" />
<glyph unicode="&#xe90f;" glyph-name="times-circle" horiz-adv-x="878" d="M656.571 318.857c0 9.714-4 18.857-10.857 25.714l-103.429 103.429 103.429 103.429c6.857 6.857 10.857 16 10.857 25.714s-4 19.429-10.857 26.286l-51.429 51.429c-6.857 6.857-16.571 10.857-26.286 10.857s-18.857-4-25.714-10.857l-103.429-103.429-103.429 103.429c-6.857 6.857-16 10.857-25.714 10.857s-19.429-4-26.286-10.857l-51.429-51.429c-6.857-6.857-10.857-16.571-10.857-26.286s4-18.857 10.857-25.714l103.429-103.429-103.429-103.429c-6.857-6.857-10.857-16-10.857-25.714s4-19.429 10.857-26.286l51.429-51.429c6.857-6.857 16.571-10.857 26.286-10.857s18.857 4 25.714 10.857l103.429 103.429 103.429-103.429c6.857-6.857 16-10.857 25.714-10.857s19.429 4 26.286 10.857l51.429 51.429c6.857 6.857 10.857 16.571 10.857 26.286zM877.714 448c0-242.286-196.571-438.857-438.857-438.857s-438.857 196.571-438.857 438.857 196.571 438.857 438.857 438.857 438.857-196.571 438.857-438.857z" />
<glyph unicode="&#xe910;" glyph-name="sd_menuclose" d="M832.002 187.733l-63.999-59.735-255.998 260.267-255.998-260.267-59.735 59.735 260.267 260.267-264.534 260.267 59.735 59.735 260.267-260.267 255.998 260.267 63.999-59.735-260.267-260.267z" />
<glyph unicode="&#xe911;" glyph-name="sd_search" d="M703.543 530.624c0-67.602-26.289-127.698-67.602-180.277 0 0 11.267 0 15.023 0s7.511 0 7.511-3.756 195.298-195.298 199.054-199.054c3.756-3.756 3.756-15.023 0-22.534-3.756-3.756-26.289-26.289-30.045-30.045s-15.023-3.756-22.534 0c-3.756 3.756-199.054 199.054-199.054 199.054-3.756 3.756-3.756 3.756-3.756 7.511s0 15.023 0 15.023c-45.068-41.312-112.675-67.602-180.277-67.602-150.232 0-270.418 120.187-270.418 270.418s120.187 281.684 270.418 281.684c153.987 3.756 281.684-120.187 281.684-270.418zM425.614 722.173c-105.164 0-187.788-82.624-187.788-187.788s82.624-187.788 187.788-187.788 187.788 82.624 187.788 187.788-82.624 187.788-187.788 187.788z" />
<glyph unicode="&#xe912;" glyph-name="viewer_right_printer" d="M133.565 737.391v222.609h756.87v-222.609h44.522c48.974 0 89.043-40.070 89.043-89.043v-400.696c0-48.974-40.070-89.043-89.043-89.043h-44.522v-222.609h-756.87v222.609h-44.522c-48.974 0-89.043 40.070-89.043 89.043v400.696c0 48.974 40.070 89.043 89.043 89.043h44.522zM222.609 336.696v-311.652h578.783v311.652h-578.783zM868.174 470.261c35.617 0 66.783 31.165 66.783 66.783s-31.165 66.783-66.783 66.783-66.783-31.165-66.783-66.783 31.165-66.783 66.783-66.783zM222.609 870.957v-133.565h578.783v133.565h-578.783zM311.652 247.652h400.696v-44.522h-400.696v44.522zM311.652 136.348h400.696v-44.522h-400.696v44.522z" />
<glyph unicode="&#xe913;" glyph-name="sd_share" d="M365.322 344.006c-23.836-23.836-55.623-35.757-91.38-35.757-75.489 0-139.057 63.568-139.057 139.057s63.568 139.057 139.057 139.057c39.732 0 71.514-15.891 99.325-39.732l238.382 123.161c0 3.976 0 11.921 0 19.866 0 75.489 63.568 139.057 139.057 139.057s139.057-63.568 139.057-139.057-63.568-139.057-139.057-139.057c-43.702 0-79.459 19.866-107.27 47.678l-234.407-119.191c0-7.945 3.976-19.866 3.976-27.811 0-11.921 0-23.836-3.976-35.757l230.437-119.191c23.836 31.781 63.568 55.623 111.246 55.623 75.489 0 139.057-63.568 139.057-139.057s-63.568-139.057-139.057-139.057-139.057 63.568-139.057 139.057c0 3.976 0 7.945 0 7.945l-246.328 123.161z" />
<glyph unicode="&#xe914;" glyph-name="enlargebar_sd_larger" d="M0 106.667v682.667h1024v-682.667h-1024zM938.667 704h-853.333v-512h853.333v512z" />
<glyph unicode="&#xe915;" glyph-name="enlargebar_sd_normal" d="M128 192v512h768v-512h-768zM810.667 618.667h-597.333v-341.333h597.333v341.333z" />
<glyph unicode="&#xe916;" glyph-name="sd_thumbs" d="M835.755 81.843h-242.816c-23.124 0-42.395 15.42-42.395 42.395v242.816c0 23.124 15.42 42.395 42.395 42.395h242.816c23.124 0 42.395-15.42 42.395-42.395v-242.816c0-26.981-15.42-42.395-42.395-42.395zM835.755 490.395h-242.816c-23.124 0-42.395 15.42-42.395 42.395v242.816c0 23.124 15.42 42.395 42.395 42.395h242.816c23.124 0 42.395-15.42 42.395-42.395v-242.816c0-26.981-15.42-42.395-42.395-42.395zM431.062 81.843h-242.816c-23.124 0-42.395 15.42-42.395 42.395v242.816c0 23.124 15.42 42.395 42.395 42.395h242.816c23.124 0 42.395-15.42 42.395-42.395v-242.816c-3.852-26.981-19.272-42.395-42.395-42.395zM431.062 490.395h-242.816c-23.124 0-42.395 15.42-42.395 42.395v242.816c0 23.124 15.42 42.395 42.395 42.395h242.816c23.124 0 42.395-15.42 42.395-42.395v-242.816c-3.852-26.981-19.272-42.395-42.395-42.395z" />
<glyph unicode="&#xe917;" glyph-name="sd_toc" d="M858.373 402.759h-516.22c-25.814 0-43.020 17.206-43.020 43.020s17.206 43.020 43.020 43.020h516.22c25.814 0 43.020-17.206 43.020-43.020s-17.206-43.020-43.020-43.020zM858.373 660.865h-516.22c-25.814 0-43.020 17.206-43.020 43.020s17.206 43.020 43.020 43.020h516.22c25.814 0 43.020-17.206 43.020-43.020s-17.206-43.020-43.020-43.020zM170.079 144.647c-25.814 0-43.020 17.206-43.020 43.020s17.206 43.020 43.020 43.020 43.020-17.206 43.020-43.020-17.206-43.020-43.020-43.020zM170.079 402.759c-25.814 0-43.020 17.206-43.020 43.020s17.206 43.020 43.020 43.020 43.020-17.206 43.020-43.020-17.206-43.020-43.020-43.020zM170.079 660.865c-25.814 0-43.020 17.206-43.020 43.020s17.206 43.020 43.020 43.020 43.020-17.206 43.020-43.020-17.206-43.020-43.020-43.020zM342.15 230.681h516.22c25.814 0 43.020-17.206 43.020-43.020s-17.206-43.020-43.020-43.020h-516.22c-25.814 0-43.020 17.206-43.020 43.020 0 21.51 21.51 43.020 43.020 43.020z" />
<glyph unicode="&#xe918;" glyph-name="sd_movie_maximize" d="M822.993 98.134h-233.244c-23.324 0-38.873 15.549-38.873 38.873s15.549 38.873 38.873 38.873h139.946l-155.495 155.495c-15.549 15.549-15.549 38.873 0 54.425s38.873 15.549 54.425 0l155.495-155.495v139.946c0 23.324 15.549 38.873 38.873 38.873s38.873-15.549 38.873-38.873v-233.244c0-19.437-15.549-38.873-38.873-38.873zM822.993 486.873c-23.324 0-38.873 15.549-38.873 38.873v139.946l-155.495-155.495c-15.549-15.549-38.873-15.549-54.425 0s-15.549 38.873 0 54.425l155.495 155.495h-139.946c-23.324 0-38.873 15.549-38.873 38.873s15.549 38.873 38.873 38.873h233.244c23.324 0 38.873-15.549 38.873-38.873v-233.244c0-19.437-15.549-38.873-38.873-38.873zM434.251 98.134h-233.244c-23.324 0-38.873 15.549-38.873 38.873v233.244c0 23.324 15.549 38.873 38.873 38.873s38.873-15.549 38.873-38.873v-139.946l155.495 155.495c15.549 15.549 38.873 15.549 54.425 0s15.549-38.873 0-54.425l-155.495-155.495h139.946c23.324 0 38.873-15.549 38.873-38.873 0-19.437-15.549-38.873-38.873-38.873zM434.251 720.119h-139.946l155.495-155.495c15.549-15.549 15.549-38.873 0-54.425s-38.873-15.549-54.425 0l-155.495 155.495v-139.946c0-23.324-15.549-38.873-38.873-38.873s-38.873 15.549-38.873 38.873v233.244c0 23.324 15.549 38.873 38.873 38.873h233.244c23.324 0 38.873-15.549 38.873-38.873s-15.549-38.873-38.873-38.873z" />
<glyph unicode="&#xe919;" glyph-name="sd_movie_minimize" d="M434.251 486.873h-233.244c-23.324 0-38.873 15.549-38.873 38.873s15.549 38.873 38.873 38.873h139.946l-167.159 163.272c-15.549 15.549-15.549 38.873 0 54.425s38.873 15.549 54.425 0l167.159-167.159v143.833c0 23.324 15.549 38.873 38.873 38.873s38.873-15.549 38.873-38.873v-233.244c0-23.324-15.549-38.873-38.873-38.873zM683.047 564.622h139.946c23.324 0 38.873-15.549 38.873-38.873s-15.549-38.873-38.873-38.873h-233.244c-23.324 0-38.873 15.549-38.873 38.873v233.244c0 23.324 15.549 38.873 38.873 38.873s38.873-15.549 38.873-38.873v-139.946l167.159 167.159c15.549 15.549 38.873 15.549 54.425 0s15.549-38.873 0-54.425l-167.159-167.159zM434.251 98.134c-23.324 0-38.873 15.549-38.873 38.873v139.946l-167.159-167.159c-15.549-15.549-38.873-15.549-54.425 0s-15.549 38.873 0 54.425l167.159 167.159h-139.946c-23.324 0-38.873 15.549-38.873 38.873s15.549 38.873 38.873 38.873h233.244c23.324 0 38.873-15.549 38.873-38.873v-233.244c0-23.324-15.549-38.873-38.873-38.873zM822.993 331.378h-139.946l167.159-167.159c15.549-15.549 15.549-38.873 0-54.425s-38.873-15.549-54.425 0l-167.159 163.272v-136.059c0-23.324-15.549-38.873-38.873-38.873s-38.873 15.549-38.873 38.873v233.244c0 23.324 15.549 38.873 38.873 38.873h233.244c23.324 0 38.873-15.549 38.873-38.873s-15.549-38.873-38.873-38.873z" />
<glyph unicode="&#xe91a;" glyph-name="pc_mute" d="M904.977 318.403l-54.349 33.446c8.361 29.265 16.723 62.711 16.723 100.337 0 137.959-87.795 250.838-209.031 296.824v0l20.904 54.349c146.32-50.169 250.838-192.308 250.838-355.351 0-45.988-8.361-91.976-25.084-129.597v0zM804.643 448c0-25.084-4.181-45.988-8.361-66.891v0l-58.53 33.446c0 0 0 0 0 0 0 12.542 4.181 20.904 4.181 33.446 0 79.434-50.169 150.501-125.416 175.585v0l20.904 58.53c96.156-33.446 167.224-125.416 167.224-234.115zM679.224 448c0 0 0 0 0 0l-104.518 58.53 20.904 58.53c50.169-16.723 83.614-62.711 83.614-117.055zM361.499 631.946l129.597 129.597v-204.85l-129.597 75.253zM959.326 146.998l-907.191 522.574 41.807 71.072 907.191-522.574-41.807-71.072zM165.011 552.518l326.086-188.127v-229.934l-209.031 209.031h-167.224v209.031h50.169zM637.416 280.776c0 0 0 0 0 0l62.711-37.626c-16.723-12.542-37.626-25.084-58.53-33.446v0l-25.084 62.711c8.361 0 12.542 4.181 20.904 8.361zM758.657 209.704v0l58.53-33.446c0 0 0 0 0 0-37.626-37.626-83.614-62.711-133.778-83.614v0l-25.084 58.53c37.626 12.542 71.072 33.446 100.337 58.53z" />
<glyph unicode="&#xe91b;" glyph-name="sd_mute" d="M970.125 185.532c-9.547-19.088-33.403-23.862-47.723-14.315l-844.67 491.528c-19.088 9.547-23.862 33.403-14.315 47.723 9.547 19.088 33.403 23.862 47.723 14.315l849.443-486.76c14.315-14.315 23.862-33.403 9.547-52.492zM860.368 333.47c14.315 38.177 19.088 76.353 19.088 114.53 0 104.988-47.723 209.977-133.618 272.010-14.315 9.547-28.635 19.088-42.95 28.635-9.547 4.773-14.315 4.773-23.862 9.547-14.315 9.547-19.088 14.315-19.088 33.403s14.315 33.403 33.403 33.403c4.773 0 9.547 0 14.315-4.773 143.165-62.038 238.607-209.977 238.607-372.225 0-52.492-9.547-100.215-28.635-147.938l-57.265 33.403zM817.418 448c0-28.635-4.773-57.265-14.315-81.127l-57.265 33.403c4.773 14.315 4.773 28.635 4.773 47.723 0 62.038-28.635 124.077-81.127 162.253-14.315 9.547-23.862 14.315-38.177 23.862-14.315 4.773-23.862 14.315-23.862 28.635 0 19.088 14.315 33.403 33.403 33.403 4.773 0 9.547 0 14.315-4.773 95.442-38.177 162.253-138.392 162.253-243.38zM683.795 448c0-4.773 0-9.547 0-9.547l-71.58 42.95c-14.315 33.403-52.492 28.635-52.492 62.038 0 19.088 14.315 33.403 33.403 33.403 4.773 0 9.547 0 14.315-4.773 42.95-19.088 76.353-71.58 76.353-124.077zM430.873 758.192c4.773 4.773 14.315 9.547 23.862 9.547 19.088 0 33.403-14.315 33.403-33.403v-181.342l-167.027 95.442 109.762 109.762zM120.687 581.618h23.862l343.595-195.657v-224.292c0-19.088-14.315-33.403-33.403-33.403-9.547 0-19.088 4.773-23.862 9.547l-171.795 176.568h-138.392c-19.088 0-33.403 14.315-33.403 33.403v200.43c0 19.088 14.315 33.403 33.403 33.403zM588.353 323.923c-14.315 0-23.862 9.547-28.635 19.088l28.635-19.088c4.773 0 4.773 0 0 0zM664.707 280.973l62.038-38.177c-19.088-19.088-42.95-33.403-71.58-47.723-4.773 0-9.547-4.773-14.315-4.773-19.088 0-33.403 14.315-33.403 33.403 0 14.315 9.547 23.862 19.088 28.635 14.315 19.088 23.862 23.862 38.177 28.635zM702.883 152.128c14.315 9.547 28.635 19.088 42.95 28.635s28.635 23.862 38.177 33.403l57.265-33.403c-38.177-42.95-85.9-76.353-138.392-100.215-4.773 0-9.547-4.773-14.315-4.773-19.088 0-33.403 14.315-33.403 33.403 0 14.315 9.547 23.862 19.088 28.635 14.315 4.773 23.862 9.547 28.635 14.315z" />
<glyph unicode="&#xe91c;" glyph-name="pc_pause" d="M300.699 752.761h97.525v-609.525h-97.525v609.525zM666.413 752.761h97.525v-609.525h-97.525v609.525z" />
<glyph unicode="&#xe91d;" glyph-name="sd_pause" d="M310.4 806.399v0c35.839 0 67.2-31.361 67.2-67.2v-582.401c0-35.839-31.361-67.2-67.2-67.2v0c-35.839 0-67.2 31.361-67.2 67.2v582.401c0 35.839 31.361 67.2 67.2 67.2zM713.6 806.399v0c35.839 0 67.2-31.361 67.2-67.2v-582.401c0-35.839-31.361-67.2-67.2-67.2v0c-35.839 0-67.2 31.361-67.2 67.2v582.401c0 35.839 31.361 67.2 67.2 67.2z" />
<glyph unicode="&#xe91e;" glyph-name="sd_play" d="M699.895 490.621l-302.218 302.218c-23.248 23.248-58.118 23.248-81.366 0s-23.248-58.118 0-81.366l259.597-259.597-259.597-259.597c-23.248-23.248-23.248-58.118 0-81.366s58.118-23.248 81.366 0l302.218 302.218c11.624 11.624 15.499 27.121 15.499 42.621 3.875 7.749-3.875 23.248-15.499 34.872z" />
<glyph unicode="&#xe91f;" glyph-name="sd_share_movie" d="M742.75 489.204c-53.565 0-98.891 24.722-131.856 65.929l-160.699-78.29c0-8.24 4.121-20.604 4.121-28.843 0-12.361 0-20.604-4.121-32.965l156.581-78.29c28.843 41.204 78.29 70.048 131.856 70.048 90.651 0 164.82-74.169 164.82-164.82s-74.169-164.82-164.82-164.82-164.82 74.169-164.82 164.82c0 8.24 0 12.361 0 20.604l-164.82 82.412c-28.843-37.086-74.169-57.687-123.616-57.687-90.651 0-164.82 74.169-164.82 164.82s74.169 164.82 164.82 164.82c53.565 0 98.891-24.722 127.737-61.808l164.82 78.29c0 8.24-4.121 16.482-4.121 24.722 0 90.651 74.169 164.82 164.82 164.82s164.82-74.169 164.82-164.82-70.048-168.942-160.699-168.942z" />
<glyph unicode="&#xe920;" glyph-name="enlargebar_pc_larger" d="M0 125.63v644.741h1024v-644.741h-1024zM948.148 694.519h-872.296v-493.037h872.296v493.037z" />
<glyph unicode="&#xe921;" glyph-name="enlargebar_pc_normal" d="M75.852 239.407v417.185h872.296v-417.185h-872.296zM872.296 580.741h-720.593v-265.481h720.593v265.481z" />
<glyph unicode="&#xe922;" glyph-name="enlargebar_pc_maximize" d="M417.185 808.296v75.852h-341.333v-341.333h75.852v212.385l238.933-238.933 53.096 53.096-238.933 238.933h212.385zM606.815 884.148v-75.852h212.385l-238.933-238.933 53.096-53.096 238.933 238.933v-212.385h75.852v341.333h-341.333zM872.296 140.8l-238.933 238.933-53.096-53.096 238.933-238.933h-212.385v-75.852h341.333v341.333h-75.852v-212.385zM390.637 379.733l-238.933-238.933v212.385h-75.852v-341.333h341.333v75.852h-212.385l238.933 238.933-53.096 53.096z" />
<glyph unicode="&#xe923;" glyph-name="pc_volume_on" d="M678.445 92.649v0l-20.904 58.53c121.236 41.807 209.031 158.862 209.031 296.826s-87.795 250.838-209.031 296.826v0l20.904 58.53c146.32-50.169 250.838-192.308 250.838-355.351s-104.518-301.007-250.838-355.351zM803.866 448c0-108.699-71.072-200.669-167.224-234.115v0l-20.904 58.53c71.072 25.084 125.416 96.156 125.416 175.585 0 83.614-50.169 150.501-125.416 175.585v0l20.904 58.53c96.156-33.446 167.224-125.416 167.224-234.115zM678.445 448c0-54.349-33.446-100.337-83.614-117.055v0l-20.904 58.53c25.084 8.361 41.807 33.446 41.807 58.53 0 29.265-16.723 50.169-41.807 58.53l20.904 58.53c0 0 0 0 0 0 50.169-16.723 83.614-62.711 83.614-117.055zM114.064 343.482v209.031h167.224l209.031 209.031v-627.092l-209.031 209.031h-167.224z" />
<glyph unicode="&#xe924;" glyph-name="sd_volume_on" d="M477.996 734.606v-573.211c0-19.432-14.573-34.004-34.004-34.004-9.716 0-19.432 4.857-24.288 9.716l-174.878 174.878h-136.017c-19.432 0-34.004 14.573-34.004 34.004v204.024c0 19.432 14.573 34.004 34.004 34.004h136.017l174.878 174.878c4.857 4.857 14.573 9.716 24.288 9.716 19.432 0 34.004-14.573 34.004-34.004zM682.021 448c0-53.436-34.004-102.013-82.581-121.442-4.857 0-9.716-4.857-14.573-4.857-19.432 0-34.004 14.573-34.004 34.004 0 38.861 63.15 29.146 63.15 92.297s-63.15 53.436-63.15 92.297c0 19.432 14.573 34.004 34.004 34.004 4.857 0 9.716 0 14.573-4.857 48.577-19.432 82.581-68.008 82.581-121.442zM813.179 448c0-106.87-63.15-204.024-165.162-247.743-4.857 0-9.716-4.857-14.573-4.857-19.432 0-34.004 14.573-34.004 34.004 0 14.573 9.716 24.288 19.432 29.146 14.573 9.716 29.146 14.573 38.861 24.288 53.436 38.861 82.581 97.154 82.581 160.305s-29.146 126.301-82.581 160.305c-14.573 9.716-24.288 14.573-38.861 24.288-9.716 4.857-19.432 14.573-19.432 29.146 0 19.432 14.573 34.004 34.004 34.004 4.857 0 9.716 0 14.573-4.857 102.013-34.004 165.162-131.158 165.162-238.028zM949.194 448c0-160.305-97.154-306.036-242.886-369.188-4.857 0-9.716-4.857-14.573-4.857-19.432 0-34.004 14.573-34.004 34.004 0 14.573 9.716 24.288 19.432 29.146s14.573 4.857 24.288 9.716c14.573 9.716 29.146 14.573 43.72 29.146 87.439 63.15 136.017 165.162 136.017 272.032s-48.577 208.882-136.017 272.032c-14.573 9.716-29.146 19.432-43.72 29.146-9.716 4.857-14.573 4.857-24.288 9.716s-19.432 14.573-19.432 29.146c0 19.432 14.573 34.004 34.004 34.004 4.857 0 9.716 0 14.573-4.857 145.731-63.15 242.886-208.882 242.886-369.188z" />
</font>
</defs>
</svg>
